Filmy, gry, aplikacje, muzyka i inne. Najlepsze torrenty w jednym miejscu.

Sztuka latania 3D (OU) – The Art Of Flight 3D *2011* [mini-HD.1080p.Over-Under.AC3.BluRay.x264-SONDA] [Napisy PL]

Data dodania: Wrzesień 19, 2016
Dodane przez: czesiu

Kategoria: Filmy 3D/4K

Ostatnia Aktualizacja: Wrzesień 19, 2016

Komentarzy: 0

Ocen ten Torrent:

No votes yet.
Please wait...

Rozmiar: 4.01 GB

Seedów: 0

Leecherów: 0

Liczba pobrań: 58

Aktualizacja Trackerów: Live

ZobaczPobierz

INFO O TORRENCIE

…::: ( O Filmie: ) :::…
gatunek: Dokumentalny,Przygodowy,Sportowy
produkcja: USA
premiera: 8 września 2011 (świat)
reżyseria: Curt Morgan

…::: ( Opis: ) :::…
Dokument obrazuje ekstremalne oblicze snowboardu. Niesamowite triki wykonywane poza oficjalnymi szlakami, zjazdy z dziewiczych stoków, ukazanie ekstremalnych ewolucji – Travis Rice razem z przyjaciółmi zmienia definicję tego, co można robić w górach. Dobrze opowiedziana historia, duża dawka mocnych wrażeń i piękno wizualnych ujęć to prawdziwa uczta dla miłośników snowboardu, ale nie tylko.
…::: ( Obsada: ) :::…
Travis Rice
Mark Landvik
Nicolas Müller
Jake Blauvelt
Scotty Lago
John Jackson

…::: ( Dane Tech: ) :::…
General
Unique ID : 183958627257920187364596895681208893639 (0x8A6524938CE483AB8CA39C27877BC0C7)
Complete name : E:mkvTHE_ART_OF_FLIGHT_3D(Sonda)THE_ART_OF_FLIGHT_3D.Title8(Sonda).mkv
Format : Matroska
Format version : Version 2
File size : 4.01 GiB
Duration : 1h 20mn
Overall bit rate mode : Variable
Overall bit rate : 7 110 Kbps
Movie name : THE_ART_OF_FLIGHT_3D.Title8.Bluray3D Rip by Sonda
Encoded date : UTC 2013-07-07 13:41:41
Writing application : mkvmerge v5.7.0 (‚The Whirlwind’) built on Jul 8 2012 20:08:51
Writing library : libebml v1.2.3 + libmatroska v1.3.0

Video
ID : 1
Format : AVC
Format/Info : Advanced Video Codec
Format profile : [email protected]
Format settings, CABAC : Yes
Format settings, ReFrames : 2 frames
Codec ID : V_MPEG4/ISO/AVC
Duration : 1h 20mn
Bit rate mode : Variable
Bit rate : 6 584 Kbps
Maximum bit rate : 40.0 Mbps
Width : 1 920 pixels
Height : 1 080 pixels
Display aspect ratio : 1.78:1
Frame rate mode : Constant
Frame rate : 23.976 fps
Color space : YUV
Chroma subsampling : 4:2:0
Bit depth : 8 bits
Scan type : Progressive
Bits/(Pixel*Frame) : 0.132
Stream size : 3.71 GiB (93%)
Title : BluRay 3D Rip by Sonda
Writing library : x264 core
Default : Yes
Forced : No
Color primaries : BT.709
Transfer characteristics : BT.709
Matrix coefficients : BT.709

Audio
ID : 2
Format : AC-3
Format/Info : Audio Coding 3
Mode extension : CM (complete main)
Format settings, Endianness : Big
Codec ID : A_AC3
Duration : 1h 20mn
Bit rate mode : Constant
Bit rate : 384 Kbps
Channel(s) : 6 channels
Channel positions : Front: L C R, Side: L R, LFE
Sampling rate : 48.0 KHz
Bit depth : 16 bits
Compression mode : Lossy
Stream size : 222 MiB (5%)
Title : AC3 5.1 Orginal
Language : English
Default : Yes
Forced : No

Text
ID : 3
Format : UTF-8
Codec ID : S_TEXT/UTF8
Codec ID/Info : UTF-8 Plain Text
Language : Polish
Default : Yes
Forced : Yes

SCREENY

TRAILER

LISTA PLIKÓW

Nazwa: Rozmiar:
THE_ART_OF_FLIGHT_3D(Sonda)/THE_ART_OF_FLIGHT_3D.Title8(Sonda).mkv 4.01 GB
THE_ART_OF_FLIGHT_3D(Sonda)/O1WZgkd.jpg 4.01 GB
THE_ART_OF_FLIGHT_3D(Sonda)/THE_ART_OF_FLIGHT_3D.Title8(Sonda).srt 4.01 GB
THE_ART_OF_FLIGHT_3D(Sonda)/THE_ART_OF_FLIGHT_3D.Title8(Sonda).txt 4.01 GB



  • KOMENTARZE

    Dodaj komentarz

    OGLĄDAJ FILMY I SERIALE ONLINE ZA DARMO!ZOBACZ!
    +