Filmy, gry, aplikacje, muzyka i inne. Najlepsze torrenty w jednym miejscu.

Kopciuszek: Inna historia 3D (OU) – Cendrillon au Far West 3D *2012* [mini-HD.1080p.Over-Under.AC3.BluRay.x264-SONDA] [Dubbing PL]

Data dodania: Wrzesień 1, 2016
Dodane przez: czesiu

Kategoria: Filmy 3D/4K

Ostatnia Aktualizacja: Wrzesień 1, 2016

Komentarzy: 0

Ocen ten Torrent:

No votes yet.
Please wait...

Rozmiar: 3.77 GB

Seedów: 0

Leecherów: 1

Liczba pobrań: 84

Aktualizacja Trackerów: Live

ZobaczPobierz

INFO O TORRENCIE

…::: ( O Filmie: ) :::…

Film w wersji 3D Over-Under.
Do odtworzenia filmu WYMAGANY odpowiedni sprzęt (TV 3D)

================================
Kopia mini-HD 1080p = 3,77 GB
================================

gatunek: Animacja
produkcja: Francja
premiera: 1 czerwca 2012 (Polska) 16 kwietnia 2012 (świat)
reżyseria: Pascal Hérold
scenariusz: Pascal Hérold

…::: ( Opis: ) :::…

*Julia Kołakowska – Kopciuszek (polski dubbing)
*Grzegorz Kwiecień – Książę (polski dubbing)
*Anna Apostolakis-Gluzińska – Księżna (polski dubbing)
*Katarzyna Kozak – Felicyty (polski dubbing)
*Beata Wyrąbkiewicz – Harmony (polski dubbing)

…::: ( Obsada: ) :::…
Poznaj surowy świat Dzikiego Zachodu, gdzie rządzi groźna Felicity, a prawo stanowią bandy małpich piratów i nikt nie może się tam czuć bezpiecznie. W tym wszystkim nasz Kopciuszek – zahartowana przez życie kowbojka, wykorzystywana i wyśmiewana przez macochę. Oczywiście, jak to w bajkach bywa, pojawia się także Książę… Co zgubi nasz Kopciuszek? Bo o żadnym pantofelku nie ma mowy! Po obejrzeniu światowej prapremiery „Kopciuszek – inna historia” nie będziecie już pamiętać o tradycyjnej wersji…
…::: ( Dane Tech: ) :::…
General
Unique ID : 204803122446146577380453298137159191338 (0x9A13A5890A1041ED9F174A4ACBC84B2A)
Complete name : F:mkvCENDRILLON_BD_3D_BLUEBIRD(Sonda)CENDRILLON_BD_3D_BLUEBIRD.Title16(Sonda).mkv
Format : Matroska
Format version : Version 2
File size : 3.77 GiB
Duration : 1h 21mn
Overall bit rate : 6 654 Kbps
Movie name : CENDRILLON_BD_3D_BLUEBIRD.Title16.Bluray 3D Rip by Sonda
Encoded date : UTC 2013-08-08 14:27:31
Writing application : mkvmerge v5.7.0 (‚The Whirlwind’) built on Jul 8 2012 20:08:51
Writing library : libebml v1.2.3 + libmatroska v1.3.0

Video
ID : 1
Format : AVC
Format/Info : Advanced Video Codec
Format profile : [email protected]
Format settings, CABAC : Yes
Format settings, ReFrames : 2 frames
Codec ID : V_MPEG4/ISO/AVC
Duration : 1h 21mn
Bit rate : 6 265 Kbps
Width : 1 920 pixels
Height : 1 080 pixels
Display aspect ratio : 16:9 (1.78:1)
Frame rate mode : Constant
Frame rate : 23.976 fps
Color space : YUV
Chroma subsampling : 4:2:0
Bit depth : 8 bits
Scan type : Progressive
Bits/(Pixel*Frame) : 0.126
Stream size : 3.55 GiB (94%)
Title : BluRay 3D Rip by Sonda
Writing library : x264 core
Default : Yes
Forced : No
Color primaries : BT.709
Transfer characteristics : BT.709
Matrix coefficients : BT.709

Audio
ID : 2
Format : AC-3
Format/Info : Audio Coding 3
Mode extension : CM (complete main)
Format settings, Endianness : Big
Codec ID : A_AC3
Duration : 1h 21mn
Bit rate mode : Constant
Bit rate : 256 Kbps
Channel(s) : 2 channels
Channel positions : Front: L R
Sampling rate : 48.0 KHz
Bit depth : 16 bits
Compression mode : Lossy
Delay relative to video : 750ms
Stream size : 149 MiB (4%)
Title : AC3 2.0 Dubbing PL
Language : Polish
Default : Yes
Forced : No

SCREENY

TRAILER

LISTA PLIKÓW

Nazwa: Rozmiar:
CENDRILLON_BD_3D_BLUEBIRD(Sonda)/CENDRILLON_BD_3D_BLUEBIRD.Title16(Sonda).mkv 3.77 GB
CENDRILLON_BD_3D_BLUEBIRD(Sonda)/4d797b0b7baa18721d3c02517535dcc1.jpg 3.77 GB



  • KOMENTARZE

    Dodaj komentarz

    OGLĄDAJ FILMY I SERIALE ONLINE ZA DARMO!ZOBACZ!
    +