Filmy, gry, aplikacje, muzyka i inne. Najlepsze torrenty w jednym miejscu.

Kasia i Tomek S02E02 2002 [TVRip][XviD torentup] [PL]

Data dodania: Sierpień 14, 2016
Dodane przez: Ogau

Kategoria: Seriale Polskie, TV/Seriale

Ostatnia Aktualizacja: Sierpień 14, 2016

Komentarzy: 0

Ocen ten Torrent:

No votes yet.
Please wait...

Rozmiar: 176.06 MB

Seedów: 0

Leecherów: 0

Liczba pobrań: 2

Aktualizacja Trackerów: Live

ZobaczPobierz

INFO O TORRENCIE

…::: ( O Serialu: ) :::…
Produkcja: Polska
Gatunek: Komedia Romantyczna
Data premiery: 2002-09-03 (Polska)
reżyseria: Jerzy Bogajewicz
scenariusz: Guy Lepage, Jolanta Hartwig-Sosnowska
muzyka: Gaetan Essiambre
zdjęcia: Włodzimierz Głodek
czas trwania odcinka: 27 min.

…::: ( Opis: ) :::…
Kasia (30 lat) i Tomek (35 lat), są ze sobą już od blisko siedmiu lat, ale nie zdecydowali się jeszcze na małżeństwo. Każdy z odcinków ukazuje wspólne życie tej pary młodych, wykształconych i zwariowanych na swoim punkcie ludzi. Kasia i Tomek tworzą związek, któremu zdaje się przyświecać idea mówiąca o tym, że przeciwieństwa się przyciągają. Ich codzienne relacje często rzypominają „burzę w szklance wody”, ale w ich wypadku zdaje się to być receptą na udany związek. Skrajnie różne temperamenty, odmienne poglądy i demonstracyjne głoszenie własnych, jedynie słusznych kwestii, jest tym, co tak naprawdę serwują sobie każdego dnia. Mimo to, a może dzięki temu, szaleją za sobą, jedno nie może funkcjonować bez tego drugiego, czyli (paradoksalnie) mamy do czynienia z harmonijnym i udanym związkiem!
…::: ( Obsada: ) :::…
Joanna Brodzik – Kasia
Paweł Wilczak – Tomek
Jurek Bogajewicz – Albert
Edward Linde-Lubaszenko – Tomasz
Edyta Olszówka – Eliza
…::: ( Dane Tech: ) :::…
Przykładowy odcinek [S02E01]

Format : AVI
Format/Info : Audio Video Interleave
File size : 176 MiB
Duration : 20mn 35s
Overall bit rate mode : Variable
Overall bit rate : 1 195 Kbps
Writing application : Nandub v1.0rc2
Writing library : Nandub build 1852/release

Video
ID : 0
Format : MPEG-4 Visual
Format profile : [email protected]
Format settings, BVOP : No
Format settings, QPel : No
Format settings, GMC : No warppoints
Format settings, Matrix : Default (MPEG)
Codec ID : XVID
Codec ID/Hint : XviD
Duration : 20mn 35s
Bit rate : 1 054 Kbps
Width : 512 pixels
Height : 384 pixels
Display aspect ratio : 4:3
Frame rate : 25.000 fps
Color space : YUV
Chroma subsampling : 4:2:0
Bit depth : 8 bits
Scan type : Progressive
Compression mode : Lossy
Bits/(Pixel*Frame) : 0.215
Stream size : 155 MiB (88%)
Writing library : XviD 0.0.09 (UTC 2003-03-25)

Audio
ID : 1
Format : MPEG Audio
Format version : Version 1
Format profile : Layer 3
Mode : Joint stereo
Mode extension : MS Stereo
Codec ID : 55
Codec ID/Hint : MP3
Duration : 20mn 35s
Bit rate mode : Variable
Bit rate : 128 Kbps
Nominal bit rate : 138 Kbps
Channel(s) : 2 channels
Sampling rate : 48.0 KHz
Compression mode : Lossy
Stream size : 18.8 MiB (11%)
Alignment : Aligned on interleaves
Interleave, duration : 24 ms (0.60 video frame)
Interleave, preload duration : 481 ms
Writing library : LAME3.93
Encoding settings : -m j -V 4 -q 2 -lowpass 19 –abr 138

SCREENY

LISTA PLIKÓW

Nazwa: Rozmiar:
Kasia i Tomek S02E01 2002 [TVRip][XviD torentup] [PL]/Kasia i Tomek S02E01 2002 [TVRip][XviD torentup] [PL].avi 176.02 MB
Kasia i Tomek S02E01 2002 [TVRip][XviD torentup] [PL]/torentup.png 176.06 MB
Kasia i Tomek S02E01 2002 [TVRip][XviD torentup] [PL]/Downloaded from TnTTorrenT.info.txt 176.06 MB
Kasia i Tomek S02E01 2002 [TVRip][XviD torentup] [PL]/Przeczytaj koniecznie torentup.txt 176.06 MB



  • KOMENTARZE

    Dodaj komentarz

    OGLĄDAJ FILMY I SERIALE ONLINE ZA DARMO!ZOBACZ!
    +